Il pane del ritorno | محمد صديق المنشاوي | The Fast and the Furious: Tokyo Drift (2006)IMDb: 8.7 HD A Futile and Stupid Gesture | LearnFlakes.net | LF | Certificate / IT Training E-Learning | 2018 Review | Charité

Deadpool 2 (2018) 720p HEVC AC3 Multiple Audio ESubs [MMRHD]

  • Category Movies
  • Type HEVC/x265
  • Language English
  • Total size 664.0 MB
  • Uploaded By MMRHD
  • Downloads 396
  • Last checked 1 day ago
  • Date uploaded 6 days ago
  • Seeders 3
  • Leechers 0

Deadpool 2

ActionComedyScience Fiction

Wisecracking mercenary Deadpool battles the evil and powerful Cable and other bad guys to save a boy's life.

Infohash : 6579C200F799A0EE032941951EA65BB5EF82B6B9

Deadpool 2 (2018) 720p HEVC AC3 Multiple Audio [Eng + Hindi + Telugu + Tamil] ESubs [MMRHD]







Quote:

IMDb: http://www.imdb.com/title/tt5463162/
Movie Name: Deadpool 2 (2018)
Genres: Action, Adventure, Comedy
Director: David Leitch
Writers: Rhett Reese, Paul Wernick
Stars: Ryan Reynolds, Josh Brolin, Morena Baccarin
Language: English , Hindi , Telugu , Tamil
Subtitle: English (Softcoded)
Encoder: MMRHD



















Format : Matroska
Format version : Version 4 / Version 2
File size : 643 MiB
Duration : 1 h 59 min
Overall bit rate : 752 kb/s
Movie name : Deadpool 2 (2018) 720p HEVC AC3 Line Auds [Eng + Hindi + Telugu + Tamil] ESubs [MMRHD]




Video
ID : 1
Format : HEVC
Duration : 1 h 59 min
Bit rate : 494 kb/s
Width: 1 280 pixels
Height : 544 pixels
Display aspect ratio : 2.35:1
Frame rate mode : Constant
Frame rate : 23.976 (24000/1001) FPS
Color space : YUV
Stream size : 422 MiB (66%)
Title : video - [MMRHD]




Audio #1
ID : 2
Codec ID : A_AC3
Duration : 1 h 59 min
Bit rate mode : Constant
Bit rate : 64.0 kb/s
Channel(s) : 2 channels
Channel positions : Front: L R
Sampling rate : 48.0 kHz
Frame rate : 31.250 FPS (1536 SPF)
Stream size : 54.6 MiB (8%)
Title : eng audio - [MMRHD]
Language : English




Audio #2
ID : 3
Format : AC-3
Duration : 1 h 59 min
Bit rate mode : Constant
Bit rate : 64.0 kb/s
Channel(s) : 2 channels
Channel positions : Front: L R
Sampling rate : 48.0 kHz
Frame rate : 31.250 FPS (1536 SPF)
Stream size : 54.6 MiB (8%)
Title : hin audio - [MMRHD]
Language : Hindi




Audio #3
ID : 4
Format : AC-3
Format/Info : Audio Coding 3
Codec ID : A_AC3
Duration : 1 h 59 min
Bit rate mode : Constant
Bit rate : 64.0 kb/s
Channel(s): 2 channels
Channel positions : Front: L R
Sampling rate : 48.0 kHz
Frame rate : 31.250 FPS (1536 SPF)
Stream size : 54.6 MiB (8%)
Title : tel audio - [MMRHD]
Language : Telugu




Audio #4
ID : 5
Format : AC-3
Duration : 1 h 59 min
Bit rate mode : Constant
Bit rate : 64.0 kb/s
Channel(s) : 2 channels
Channel positions : Front: L R
Sampling rate : 48.0 kHz
Frame rate  : 31.250 FPS (1536 SPF)
Bit depth : 16 bits
Stream size : 54.6 MiB (8%)
Title : tamil audio - [MMRHD]
Language : Tamil




Text
ID : 6
Format : UTF-8
Duration : 1 h 58 min
Bit rate : 71 b/s
Count of elements : 2154
Stream size : 62.0 KiB (0%)
Title : eng sub - [MMRHD]
Language : English


Files:

Deadpool 2 (2018)
  • [Sample] Deadpool 2 (2018) 720p HEVC AC3 Line Auds [Eng + Hindi + Telugu + Tamil] ESubs.mkv (21.1 MB)
  • Deadpool 2 (2018) 720p HEVC AC3 Line Auds [Eng + Hindi + Telugu + Tamil] ESubs.mkv (642.9 MB)

Comments

Code:

  • udp://tracker.openbittorrent.com:80/announce
  • udp://tracker.opentrackr.org:1337/announce