NCIS.S06.1080p.AMZN.WEBRip.DDP5.1.x264-NTb | Super Stickman GolfJogos para BlackBerry | The Return Of Superman Ep.230Papystreaming | Money Can Suck My Cock | Bella Ramsey

18+ Aardvark 2018 Movies 720p HDRip x264 5.1 MSubs with Sample ☻r...

  • Category Movies
  • Type HD
  • Language English
  • Total size 959.4 MB
  • Uploaded By nehalpuja
  • Downloads 442
  • Last checked 23 hours ago
  • Date uploaded 6 days ago
  • Seeders 5
  • Leechers 3

Infohash : 24487A6BCE13FBC716B1AF1A834B40B651FFC5E5

18+ Aardvark 2018 Movies 720p HDRip x264 5.1 MSubs with Sample ☻rDX☻
===============================================================================================

SCREEN SHOTS:



or

http://iphonehosting.eu/2018/8/income/1.html

File size : 950 MiB
Duration : 1 h 29 min
Overall bit rate : 1 485 kb/s
Movie name : 18+ Aardvark 2018 Movies 720p HDRip x264 5.1 MSubs ☻rDX☻

Video
ID : 2
Format : AVC
Format/Info : Advanced Video Codec
Format profile : [email protected]
Format settings, CABAC : Yes
Format settings, ReFrames : 4 frames
Codec ID : V_MPEG4/ISO/AVC
Duration : 1 h 29 min
Bit rate : 1 100 kb/s
Width : 1 280 pixels
Height : 534 pixels
Display aspect ratio : 2.40:1
Original display aspect ratio : 2.40:1
Frame rate mode : Constant
Frame rate : 23.810 FPS
Color space : YUV
Chroma subsampling : 4:2:0
Bit depth : 8 bits
Scan type : Progressive
Bits/(Pixel*Frame) : 0.068
Stream size : 686 MiB (72%)
Title : ☻rDX☻
Writing library : x264

Audio
ID : 1
Format : AC-3
Format/Info : Audio Coding 3
Mode extension : CM (complete main)
Format settings, Endianness : Big
Codec ID : A_AC3
Duration : 1 h 29 min
Bit rate mode : Constant
Bit rate : 384 kb/s
Channel(s) : 6 channels
Channel positions : Front: L C R, Side: L R, LFE
Sampling rate : 48.0 kHz
Frame rate : 31.250 FPS (1536 spf)
Bit depth : 16 bits
Compression mode : Lossy
Stream size : 246 MiB (26%)
Title : ☻rDX☻
Default : Yes
Forced : No

Text #1
ID : 3
Format : UTF-8
Codec ID : S_TEXT/UTF8
Codec ID/Info : UTF-8 Plain Text
Title : ☻rDX☻
Language : English
Default : Yes
Forced : No

Text #2
ID : 4
Format : UTF-8
Codec ID : S_TEXT/UTF8
Codec ID/Info : UTF-8 Plain Text
Title : ☻rDX☻
Default : No
Forced : No

Text #3
ID : 5
Format : UTF-8
Codec ID : S_TEXT/UTF8
Codec ID/Info : UTF-8 Plain Text
Title : ☻rDX☻
Language : French
Default : No
Forced : No



IMDB : http://www.imdb.com/title/tt3548028

Files:

18+ Aardvark 2018 Movies 720p HDRip x264 5.1 MSubs with Sample ☻rDX☻
  • Sample ~ 18+ Aardvark 2018 Movies 720p HDRip x264 5.1 MSubs ☻rDX☻.mkv (9.1 MB)
  • 18+ Aardvark 2018 Movies 720p HDRip x264 5.1 MSubs ☻rDX☻.mkv (950.3 MB)

There are currently no comments. Feel free to leave one :)

Code:

  • udp://tracker.coppersurfer.tk:6969/announce
  • udp://tracker.leechers-paradise.org:6969/announce
  • udp://tracker.pirateparty.gr:6969/announce
  • udp://eddie4.nl:6969/announce
  • udp://tracker.zer0day.to:1337/announce
  • udp://9.rarbg.me:2710/announce
  • udp://9.rarbg.to:2710/announce
  • udp://public.popcorn-tracker.org:6969/announce
  • udp://p4p.arenabg.ch:1337/announce
  • udp://tracker.vanitycore.co:6969/announce
  • udp://ipv4.tracker.harry.lu:80/announce
  • udp://tracker.opentrackr.org:1337/announce
  • udp://p4p.arenabg.com:1337/announce
  • udp://shadowshq.yi.org:6969/announce