Hap and Leonard HDTV | El Recuerdo de Marnie | Zoo Tycoon Ultimate Animal Collection READNFO-CODEXOzel Mesaj | Noragami (2014) | Niebieski film (2016) PL.1080i.HDTV.h264-HcI | PL

Insurgent (2015) 720p - BDRip - x264 - [Hindi + Eng] - 1GB - ES...

  • Category Movies
  • Type HD
  • Language English
  • Total size 1.0 GB
  • Uploaded By MovCr
  • Downloads 1201
  • Last checked 13 hours ago
  • Date uploaded 5 days ago
  • Seeders 19
  • Leechers 2

Insurgent

ActionScience FictionRomance

Beatrice Prior must confront her inner demons and continue her fight against a powerful alliance which threatens to tear her society apart.

Infohash : 0D372C7970CF79B2FCBA4DE79BA63964C204A3D2

http://movcr.com

Insurgent (2015) 720p - BDRip -  x264 - [Hindi + Eng]  - 1GB - ESub - MovCr



General
Unique ID                   : 190223492824599199357297769081242225433 (0x8F1BB64BE7146E29918C9E96CC5D8B19)
Complete name               : D:\[MovCr.com] - Insurgent (2015) 720p - BDRip -  x264 - [Hindi + Eng]  - 1GB - ESub - MovCr.mkv
Format                      : Matroska
Format version              : Version 4 / Version 2
File size                   : 1.00 GiB
Duration                    : 1 h 59 min
Overall bit rate            : 1 204 kb/s
Movie name                  : www.MovCr.com
Encoded date                : UTC 2018-08-10 05:05:50
Writing application         : mkvmerge v11.0.0 ('Alive') 32bit
Writing library             : libebml v1.3.4 + libmatroska v1.4.5

Video
ID                          : 1
Format                      : AVC
Format/Info                 : Advanced Video Codec
Format profile              : [email protected]
Format settings             : CABAC / 4 Ref Frames
Format settings, CABAC      : Yes
Format settings, ReFrames   : 4 frames
Codec ID                    : V_MPEG4/ISO/AVC
Duration                    : 1 h 59 min
Bit rate                    : 918 kb/s
Width                       : 1 280 pixels
Height                      : 536 pixels
Display aspect ratio        : 2.40:1
Frame rate mode             : Constant
Frame rate                  : 23.976 (24000/1001) FPS
Original frame rate         : 23.976 (23976/1000) FPS
Color space                 : YUV
Chroma subsampling          : 4:2:0
Bit depth                   : 8 bits
Scan type                   : Progressive
Bits/(Pixel*Frame)          : 0.056
Stream size                 : 781 MiB (76%)
Title                       : www.MovCr.com
Writing library             : x264 core 123 r2189 35cf912
Encoding settings           : cabac=1 / ref=4 / deblock=1:-1:-1 / analyse=0x3:0x133 / me=umh / subme=9 / psy=1 / psy_rd=1.00:0.15 / mixed_ref=1 / me_range=24 / chroma_me=1 / trellis=2 / 8x8dct=1 / cqm=0 / deadzone=21,11 / fast_pskip=0 / chroma_qp_offset=-3 / threads=48 / sliced_threads=0 / nr=0 / decimate=1 / interlaced=0 / bluray_compat=0 / constrained_intra=0 / bframes=3 / b_pyramid=2 / b_adapt=2 / b_bias=0 / direct=3 / weightb=1 / open_gop=0 / weightp=2 / keyint=250 / keyint_min=23 / scenecut=40 / intra_refresh=0 / rc_lookahead=60 / rc=2pass / mbtree=1 / bitrate=918 / ratetol=1.0 / qcomp=0.60 / qpmin=0 / qpmax=69 / qpstep=4 / cplxblur=20.0 / qblur=0.5 / vbv_maxrate=31250 / vbv_bufsize=31250 / nal_hrd=none / ip_ratio=1.40 / aq=1:1.00
Default                     : Yes
Forced                      : No
Color range                 : Limited
Color primaries             : BT.709
Matrix coefficients         : BT.709

Audio #1
ID                          : 2
Format                      : AAC
Format/Info                 : Advanced Audio Codec
Format profile              : LC
Codec ID                    : A_AAC-2
Duration                    : 1 h 59 min
Bit rate                    : 192 kb/s
Channel(s)                  : 2 channels
Channel positions           : Front: L R
Sampling rate               : 48.0 kHz
Frame rate                  : 46.875 FPS (1024 SPF)
Compression mode            : Lossy
Stream size                 : 161 MiB (16%)
Title                       : www.MovCr.com
Language                    : Hindi
Default                     : Yes
Forced                      : No

Audio #2
ID                          : 3
Format                      : AAC
Format/Info                 : Advanced Audio Codec
Format profile              : LC
Codec ID                    : A_AAC-2
Duration                    : 1 h 59 min
Bit rate                    : 93.8 kb/s
Channel(s)                  : 2 channels
Channel positions           : Front: L R
Sampling rate               : 48.0 kHz
Frame rate                  : 46.875 FPS (1024 SPF)
Compression mode            : Lossy
Stream size                 : 79.8 MiB (8%)
Title                       : www.MovCr.com
Language                    : English
Default                     : No
Forced                      : No

Text
ID                          : 4
Format                      : UTF-8
Codec ID                    : S_TEXT/UTF8
Codec ID/Info               : UTF-8 Plain Text
Duration                    : 1 h 47 min
Bit rate                    : 44 b/s
Count of elements           : 1179
Stream size                 : 35.1 KiB (0%)
Title                       : www.MovCr.com
Default                     : Yes
Forced                      : No





Files:

  • [MovCr.com] - Insurgent (2015) 720p - BDRip - x264 - [Hindi + Eng] - 1GB - ESub - MovCr.mkv (1.0 GB)

There are currently no comments. Feel free to leave one :)

Code:

  • udp://tracker.openbittorrent.com:80/announce
  • udp://tracker.opentrackr.org:1337/announce
  • udp://tracker.coppersurfer.tk:6969/announce
  • udp://tracker.opentrackr.org:1337/announce
  • udp://tracker.leechers-paradise.org:6969/announce
  • udp://9.rarbg.to:2800/announce
  • udp://eddie4.nl:6969/announce
  • udp://9.rarbg.to:2800/announce
  • udp://tracker.doko.moe:6969/announce
  • udp://thetracker.org:80/announce
  • udp://bt.xxx-tracker.com:2710/announce
  • udp://tracker.vanitycore.co:6969/announce
  • udp://tracker.tiny-vps.com:6969/announce
  • udp://tracker.leechers-paradise.org:6969/announce
  • udp://tracker.opentrackr.org:1337/announce
  • udp://tracker.coppersurfer.tk:6969/announce
  • udp://open.stealth.si:80/announce
  • udp://inferno.demonoid.pw:3418/announce
  • udp://retracker.lanta-net.ru:2710/announce
  • udp://peerfect.org:6969/announce
  • udp://tracker.swateam.org.uk:2710/announce