download Ant-Man et la Guêpe (2018) x264 | Der Sex Pakt | Mira-Grey - Volles Risiko - ins GesIMDb: 5.1 HD The Second | Watch movie | Crash Bernstein

The Secret Of Marrowbone 2018 Movies 720p BluRay x264 5.1 ESubs w...

  • Category Movies
  • Type HD
  • Language English
  • Total size 1.3 GB
  • Uploaded By nehalpuja
  • Downloads 96
  • Last checked 17 minutes ago
  • Date uploaded 4 days ago
  • Seeders 7
  • Leechers 2

Marrowbone

DramaHorrorThriller

A young man and his four younger siblings, who have kept secret the death of their beloved mother in order to remain together, are plagued by a sinister presence in the sprawling manor in which they live.

Infohash : 2DA666BE31865C94DEFD4F06CAD4266FCE80B535

The Secret Of Marrowbone 2018 Movies 720p BluRay x264 5.1 ESubs with Sample ☻rDX☻
===============================================================================================

SCREEN SHOTS:



or

http://iphonehosting.eu/2018/8/gadget/1.html

File size : 1.33 GiB
Duration : 1 h 50 min
Overall bit rate : 1 725 kb/s
Movie name : The Secret Of Marrowbone 2018 Movies 720p BluRay x264 5.1 ESubs ☻rDX☻

Video
ID : 1
Format : AVC
Format/Info : Advanced Video Codec
Format profile : [email protected]
Format settings, CABAC : Yes
Format settings, ReFrames : 4 frames
Codec ID : V_MPEG4/ISO/AVC
Duration : 1 h 50 min
Bit rate : 1 500 kb/s
Width : 1 280 pixels
Height : 536 pixels
Display aspect ratio : 2.40:1
Frame rate mode : Constant
Frame rate : 23.976 (24000/1001) FPS
Color space : YUV
Chroma subsampling : 4:2:0
Bit depth : 8 bits
Scan type : Progressive
Bits/(Pixel*Frame) : 0.091
Stream size : 1.13 GiB (85%)
Title : ☻rDX☻
Writing library : x264

Audio
ID : 2
Format : AC-3
Format/Info : Audio Coding 3
Mode extension : CM (complete main)
Format settings, Endianness : Big
Codec ID : A_AC3
Duration : 1 h 50 min
Bit rate mode : Constant
Bit rate : 224 kb/s
Channel(s) : 6 channels
Channel positions : Front: L C R, Side: L R, LFE
Sampling rate : 48.0 kHz
Frame rate : 31.250 FPS (1536 spf)
Bit depth : 16 bits
Compression mode : Lossy
Stream size : 177 MiB (13%)
Title : ☻rDX☻
Language : English
Default : Yes
Forced : No

Text
ID : 3
Format : ASS
Codec ID : S_TEXT/ASS
Codec ID/Info : Advanced Sub Station Alpha
Compression mode : Lossless
Title : ☻rDX☻
Language : English
Default : Yes
Forced : No



IMDB : http://www.imdb.com/title/tt5886440

Files:

The Secret Of Marrowbone 2018 Movies 720p BluRay x264 5.1 ESubs with Sample ☻rDX☻
  • Sample ~ The Secret Of Marrowbone 2018 Movies 720p BluRay x264 5.1 ESubs ☻rDX☻.mkv (11.4 MB)
  • The Secret Of Marrowbone 2018 Movies 720p BluRay x264 5.1 ESubs ☻rDX☻.mkv (1.3 GB)

There are currently no comments. Feel free to leave one :)

Code:

  • udp://tracker.coppersurfer.tk:6969/announce
  • udp://tracker.leechers-paradise.org:6969/announce
  • udp://tracker.pirateparty.gr:6969/announce
  • udp://eddie4.nl:6969/announce
  • udp://tracker.zer0day.to:1337/announce
  • udp://9.rarbg.me:2710/announce
  • udp://9.rarbg.to:2710/announce
  • udp://public.popcorn-tracker.org:6969/announce
  • udp://p4p.arenabg.ch:1337/announce
  • udp://tracker.vanitycore.co:6969/announce
  • udp://ipv4.tracker.harry.lu:80/announce
  • udp://tracker.opentrackr.org:1337/announce
  • udp://p4p.arenabg.com:1337/announce
  • udp://shadowshq.yi.org:6969/announce