Relaxation Guitar Maestro | Cover Image Gallery | Solo: A Star Wars StoryCobra Kai | Look Here | Sullivan Stapleton

7 Hours to Go Hindi (2016) 720p HDRip x264 AAC by Full4movies

  • Category Movies
  • Type HD
  • Language Hindi
  • Total size 850.3 MB
  • Uploaded By shmasti
  • Downloads 274
  • Last checked 38 minutes ago
  • Date uploaded 5 days ago
  • Seeders 15
  • Leechers 2

Infohash : E816A9E193EC3E9156E624AA9C3CAD05217D851E



General
Complete name : 7 Hours to Go Hindi (2016) 720p HDRip x264 AAC by Full4movies.mkv
Format : Matroska
Format version : Version 4 / Version 2
File size : 850 MiB
Duration : 1 h 54 min
Overall bit rate : 1 042 kb/s
Movie name : www.Full4movies.co
Encoded date : UTC 2018-08-09 13:14:12
Writing application : mkvmerge v8.1.0 ('Psychedelic Postcard') 32bit
Writing library : libebml v1.3.1 + libmatroska v1.4.2

Video
ID : 1
Format : AVC
Format/Info : Advanced Video Codec
Format profile : [email protected]
Format settings, CABAC : Yes
Format settings, RefFrames : 10 frames
Codec ID : V_MPEG4/ISO/AVC
Duration : 1 h 54 min
Bit rate : 880 kb/s
Width : 1 280 pixels
Height : 544 pixels
Display aspect ratio : 2.35:1
Frame rate mode : Constant
Frame rate : 23.976 (24000/1001) FPS
Color space : YUV
Chroma subsampling : 4:2:0
Bit depth : 8 bits
Scan type : Progressive
Bits/(Pixel*Frame) : 0.053
Stream size : 718 MiB (84%)
Writing library : x264 core 142 r2479 dd79a61
Language : Hindi
Default : Yes
Forced : No
Color range : Limited
Color primaries : BT.709
Transfer characteristics : BT.709
Matrix coefficients : BT.709

Audio
ID : 2
Format : AAC
Format/Info : Advanced Audio Codec
Format profile : LC
Codec ID : A_AAC
Duration : 1 h 54 min
Bit rate : 160 kb/s
Channel(s) : 2 channels
Channel positions : Front: L R
Sampling rate : 48.0 kHz
Frame rate : 46.875 FPS (1024 SPF)
Compression mode : Lossy
Delay relative to video : -21 ms
Stream size : 130 MiB (15%)
Language : Hindi
Default : Yes
Forced : No

Screen Shoots

Files:

  • 7 Hours to Go Hindi (2016) 720p HDRip x264 AAC by Full4movies.mkv (850.3 MB)

There are currently no comments. Feel free to leave one :)

Code:

  • udp://tracker.coppersurfer.tk:6969/announce
  • udp://tracker.opentrackr.org:1337/announce
  • udp://9.rarbg.me:2710/announce
  • udp://tracker.torrent.eu.org:451/announce
  • udp://open.stealth.si:80/announce
  • udp://public.popcorn-tracker.org:6969/announce
  • udp://p4p.arenabg.ch:1337/announce
  • udp://tracker.zer0day.to:1337/announce
  • udp://tracker.pirateparty.gr:6969/announce
  • udp://tracker.leechers-paradise.org:6969/announce
  • udp://tracker.tiny-vps.com:6969/announce
  • udp://bt.firebit.co.uk:6969/announce
  • udp://inferno.demonoid.pw:3397/announce
  • udp://shadowshq.yi.org:6969/announce
  • udp://9.rarbg.to:2780/announce